Скачать торрент: Набережная Орфевр, 36

Файл загружен23:46, 04.08.2013
К-во скачиваний15
Сидеры / Личеры4/15
Размер файлаn/a
Просмотров11190

Набережная Орфевр, 36 / 36 Quai des Orfvres (2004) BDRip 720p от UAGet

Channel positions Front
  • Side:L R
  • L C R
  • LFE
Выпуск в прокат2004
Кодеки файла
  • MKV
  • H.264
Кто переводил?Профессиональный (полное дублирование R5)
Название в прокате36 Quai des Orfvres
Длинна картины (время)01:51:01
Студия
  • TF1 Films Production
  • Cin Cinmas
  • Gaumont International
  • KL Productions
  • Canal+ [fr]
  • LGM Productions
  • Uni Etoile 2
Категория
  • Драма
  • Триллер
  • Криминал
  • Боевик
Изготовлено в странеФранция
РежиссураОливье Маршаль
Роли исполняли
  • Катрин Маршаль
  • Жерар Депардье
  • Ален Фиглаж
  • Даниель Отой
  • Валерия Голино
  • Даниэль Дюваль
  • Милен Демонжо
  • Франсис Рено
  • Рошди Зем
  • Андре Дюссолье
Данные о видео (подробно)
  • yuv420p
  • 1k tbn
  • h264
  • PAR 1:1 DAR 40:17
  • 180k tbc
  • 1280x544
  • 2319 kbps
  • 23.98 fps
  • 24 tbr
Что со звуком?
  • 5.1
  • 448 kb/sMediaInfoGeneral
  • AC3
  • s16
  • 48000 Hz
Какое качество?BDRip 720p (источник:Blu-Ray Remux 1080p)
Подробнее о кино
  • Duration :1h 51mn
  • Default :Yes
    • Format settings
    • CABAC :Yes
  • Bit depth :8 bits
    • Format settings
    • ReFrames :8 frames
  • Codec ID :V_MPEG4/ISO/AVC
  • Bit rate :448 Kbps
  • Sampling rate :48.0 KHz
  • Display aspect ratio :2.35:1
  • Channel(s) :6 channels
  • Bits/(Pixel*Frame) :0.139
  • Format :Matroska
  • Codec ID :A_AC3
  • Format/Info :Audio Coding 3
  • О фильме
  • Scan type :Progressive
  • Default :Yes
  • ID :1
  • Format/Info :Advanced Video Codec
  • Файл
  • Bit depth :16 bits
  • File size :2.14 GiB
  • Stream size :1.75 GiB (82%)
  • Compression mode :Lossy
  • Bit rate mode :Constant
  • Format profile :High@L4.0
  • Color space :YUV
  • Format :AVC
  • Title :Russian (Dub R5)
  • Audio
  • Format version :Version 2
  • Width :1 280 pixels
  • Frame rate :23.976 fps
  • Forced :No
  • Format :AC-3
  • Encoded date :UTC 2012-05-21 06:13:42
    • Endianness :Big
    • Format settings
  • Language :Russian
  • Height :544 pixels
  • Bit rate :2 319 Kbps
  • Writing library :x264 core 112
  • Stream size :356 MiB (16%)
  • Video
  • Duration :1h 51mn
  • ID :2
  • Chroma subsampling :4:2:0
  • Overall bit rate :2 765 Kbps
  • Mode extension :CM (complete main)
  • Duration :1h 51mn
  • Frame rate mode :Variable
Скачать .torrent-файл

Скриншоты:

  • 15.4 Kb
  • 11.3 Kb
  • 6.4 Kb
  • 7.1 Kb
  • 11.6 Kb
  • 10.2 Kb
  • 2.2 Kb

Еще медиа-файлы

Название Размер Сидеры / Личеры Скачиваний
Набережная Орфевр, 36 / 36 Quai des Orfvres (2004) Blu-Ray Remux 1080p n/a 4/15 313 скачать →
Адский дом / To Let / Pelculas para no dormir: Para entrar a vivir (2006) ... n/a 4/15 183 скачать →
Аппалуза / Appaloosa (2008) BDRip от Rulya74 n/a 4/15 358 скачать →
D, P Легенды осени / Legends of the Fall (1994) BDRip 1080p 608 Мб 4/15 484 скачать →
Тёмный инстинкт [01-08 из 08] (2006) IPTVRip от Files-x 1775 Кб 4/15 406 скачать →
На заре во дворе (1985) DVDRip n/a 4/15 876 скачать →
Филёр (1987) DVDRip n/a 4/15 509 скачать →
Genesis - Nursery Cryme (1971) FLAC n/a 4/15 384 скачать →
КПК Лицензия Метро (2012) HDRip от Torrent-Xzona 315 Кб 4/15 744 скачать →
Кролики / Rabbits (2002) DVDRip n/a 4/15 79 скачать →
Тайм-Код / TimeCode (2000) DVDRip n/a 4/15 335 скачать →
Токио! / Tokyo! (2008) DVDRip 112 Кб 4/15 879 скачать →
Остров 1000 удовольствий / Die Insel der tausend Freuden (1978) DVDRip n/a 4/15 353 скачать →
Пингвины Мадагаскара - Рождественские проделки / The Madagascar Penguins ... n/a 4/15 729 скачать →
Пингвины Мадагаскара Серии 0-19(26) / The Penguins Of Madagascarsiries ... n/a 4/15 544 скачать →
Симпсоны / The Simpsons (сезон 24, серия 15) (Мэтт Гроунинг) MVO 609 Мб 4/15 214 скачать →
Симпсоны (23 сезон 20 серия) / The Simpsons (Мэтт Гроенинг) VO 1686 Кб 4/15 374 скачать →
Симпсоны / The Simpsons (сезон 23, серия 15) (Мэтт Гроенинг/ Matt Groening) ... n/a 4/15 506 скачать →
Скуби-Ду! Маска синего сокола / Scooby-Doo! Mask of the Blue Falcon (Оливье ... n/a 4/15 571 скачать →
Том и Джерри: Робин Гуд и мышь-весельчак / Tom And Jerry: Robin Hood And ... n/a 4/15 934 скачать →